  0
SECTION
  2
HEADER
  9
$ACADVER
  1
AC1014
  9
$ACADMAINTVER
 70
     9
  9
$DWGCODEPAGE
  3
ANSI_1252
  9
$INSBASE
 10
0.0
 20
0.0
 30
0.0
  9
$EXTMIN
 10
0.0
 20
0.0
 30
0.0
  9
$EXTMAX
 10
25.0
 20
35.0
 30
0.0
  9
$LIMMIN
 10
0.0
 20
0.0
  9
$LIMMAX
 10
12.0
 20
9.0
  9
$ORTHOMODE
 70
     0
  9
$REGENMODE
 70
     1
  9
$FILLMODE
 70
     1
  9
$QTEXTMODE
 70
     0
  9
$MIRRTEXT
 70
     1
  9
$DRAGMODE
 70
     2
  9
$LTSCALE
 40
1.0
  9
$OSMODE
 70
    37
  9
$ATTMODE
 70
     1
  9
$TEXTSIZE
 40
0.2
  9
$TRACEWID
 40
0.05
  9
$TEXTSTYLE
  7
STANDARD
  9
$CLAYER
  8
0
  9
$CELTYPE
  6
BYLAYER
  9
$CECOLOR
 62
   256
  9
$CELTSCALE
 40
1.0
  9
$DELOBJ
 70
     1
  9
$DISPSILH
 70
     0
  9
$DIMSCALE
 40
1.0
  9
$DIMASZ
 40
0.18
  9
$DIMEXO
 40
0.0625
  9
$DIMDLI
 40
0.38
  9
$DIMRND
 40
0.0
  9
$DIMDLE
 40
0.0
  9
$DIMEXE
 40
0.18
  9
$DIMTP
 40
0.0
  9
$DIMTM
 40
0.0
  9
$DIMTXT
 40
0.18
  9
$DIMCEN
 40
0.09
  9
$DIMTSZ
 40
0.0
  9
$DIMTOL
 70
     0
  9
$DIMLIM
 70
     0
  9
$DIMTIH
 70
     1
  9
$DIMTOH
 70
     1
  9
$DIMSE1
 70
     0
  9
$DIMSE2
 70
     0
  9
$DIMTAD
 70
     0
  9
$DIMZIN
 70
     0
  9
$DIMBLK
  1

  9
$DIMASO
 70
     1
  9
$DIMSHO
 70
     1
  9
$DIMPOST
  1

  9
$DIMAPOST
  1

  9
$DIMALT
 70
     0
  9
$DIMALTD
 70
     2
  9
$DIMALTF
 40
25.4
  9
$DIMLFAC
 40
1.0
  9
$DIMTOFL
 70
     0
  9
$DIMTVP
 40
0.0
  9
$DIMTIX
 70
     0
  9
$DIMSOXD
 70
     0
  9
$DIMSAH
 70
     0
  9
$DIMBLK1
  1

  9
$DIMBLK2
  1

  9
$DIMSTYLE
  2
STANDARD
  9
$DIMCLRD
 70
     0
  9
$DIMCLRE
 70
     0
  9
$DIMCLRT
 70
     0
  9
$DIMTFAC
 40
1.0
  9
$DIMGAP
 40
0.09
  9
$DIMJUST
 70
     0
  9
$DIMSD1
 70
     0
  9
$DIMSD2
 70
     0
  9
$DIMTOLJ
 70
     1
  9
$DIMTZIN
 70
     0
  9
$DIMALTZ
 70
     0
  9
$DIMALTTZ
 70
     0
  9
$DIMFIT
 70
     3
  9
$DIMUPT
 70
     0
  9
$DIMUNIT
 70
     2
  9
$DIMDEC
 70
     4
  9
$DIMTDEC
 70
     4
  9
$DIMALTU
 70
     2
  9
$DIMALTTD
 70
     2
  9
$DIMTXSTY
  7
STANDARD
  9
$DIMAUNIT
 70
     0
  9
$LUNITS
 70
     2
  9
$LUPREC
 70
     4
  9
$SKETCHINC
 40
0.1
  9
$FILLETRAD
 40
0.5
  9
$AUNITS
 70
     0
  9
$AUPREC
 70
     0
  9
$MENU
  1
.
  9
$ELEVATION
 40
0.0
  9
$PELEVATION
 40
0.0
  9
$THICKNESS
 40
0.0
  9
$LIMCHECK
 70
     0
  9
$CHAMFERA
 40
0.5
  9
$CHAMFERB
 40
0.5
  9
$CHAMFERC
 40
1.0
  9
$CHAMFERD
 40
0.0
  9
$SKPOLY
 70
     0
  9
$TDCREATE
 40
2451930.333333333
  9
$TDUPDATE
 40
2451930.5625
  9
$TDINDWG
 40
0.0000000116
  9
$TDUSRTIMER
 40
0.0000000116
  9
$USRTIMER
 70
     1
  9
$ANGBASE
 50
0.0
  9
$ANGDIR
 70
     0
  9
$PDMODE
 70
     0
  9
$PDSIZE
 40
0.0
  9
$PLINEWID
 40
0.0
  9
$COORDS
 70
     1
  9
$SPLFRAME
 70
     0
  9
$SPLINETYPE
 70
     6
  9
$SPLINESEGS
 70
     8
  9
$ATTDIA
 70
     0
  9
$ATTREQ
 70
     1
  9
$HANDLING
 70
     1
  9
$HANDSEED
  5
D9
  9
$SURFTAB1
 70
     6
  9
$SURFTAB2
 70
     6
  9
$SURFTYPE
 70
     6
  9
$SURFU
 70
     6
  9
$SURFV
 70
     6
  9
$UCSNAME
  2

  9
$UCSORG
 10
0.0
 20
0.0
 30
0.0
  9
$UCSXDIR
 10
1.0
 20
0.0
 30
0.0
  9
$UCSYDIR
 10
0.0
 20
1.0
 30
0.0
  9
$PUCSNAME
  2

  9
$PUCSORG
 10
0.0
 20
0.0
 30
0.0
  9
$PUCSXDIR
 10
1.0
 20
0.0
 30
0.0
  9
$PUCSYDIR
 10
0.0
 20
1.0
 30
0.0
  9
$USERI1
 70
     0
  9
$USERI2
 70
     0
  9
$USERI3
 70
     0
  9
$USERI4
 70
     0
  9
$USERI5
 70
     0
  9
$USERR1
 40
0.0
  9
$USERR2
 40
0.0
  9
$USERR3
 40
0.0
  9
$USERR4
 40
0.0
  9
$USERR5
 40
0.0
  9
$WORLDVIEW
 70
     1
  9
$SHADEDGE
 70
     3
  9
$SHADEDIF
 70
    70
  9
$TILEMODE
 70
     1
  9
$MAXACTVP
 70
    64
  9
$PINSBASE
 10
0.0
 20
0.0
 30
0.0
  9
$PLIMCHECK
 70
     0
  9
$PEXTMIN
 10
1.000000000000000E+20
 20
1.000000000000000E+20
 30
1.000000000000000E+20
  9
$PEXTMAX
 10
-1.000000000000000E+20
 20
-1.000000000000000E+20
 30
-1.000000000000000E+20
  9
$PLIMMIN
 10
0.0
 20
0.0
  9
$PLIMMAX
 10
12.0
 20
9.0
  9
$UNITMODE
 70
     0
  9
$VISRETAIN
 70
     1
  9
$PLINEGEN
 70
     0
  9
$PSLTSCALE
 70
     1
  9
$TREEDEPTH
 70
  3020
  9
$PICKSTYLE
 70
     1
  9
$CMLSTYLE
  2
STANDARD
  9
$CMLJUST
 70
     0
  9
$CMLSCALE
 40
1.0
  9
$PROXYGRAPHICS
 70
     1
  9
$MEASUREMENT
 70
     0
  0
ENDSEC
  0
SECTION
  2
CLASSES
  0
CLASS
  1
ACDBDICTIONARYWDFLT
  2
AcDbDictionaryWithDefault
  3
ObjectDBX Classes
 90
        0
280
     0
281
     0
  0
CLASS
  1
VISUALSTYLE
  2
AcDbVisualStyle
  3
ObjectDBX Classes
 90
     4095
280
     0
281
     0
  0
CLASS
  1
MATERIAL
  2
AcDbMaterial
  3
ObjectDBX Classes
 90
     1153
280
     0
281
     0
  0
CLASS
  1
SCALE
  2
AcDbScale
  3
ObjectDBX Classes
 90
     1153
280
     0
281
     0
  0
CLASS
  1
DICTIONARYVAR
  2
AcDbDictionaryVar
  3
ObjectDBX Classes
 90
        0
280
     0
281
     0
  0
CLASS
  1
XRECORD
  2
AcDbXrecord
  3
AutoCAD 2000
 90
        0
280
     0
281
     0
  0
CLASS
  1
LWPOLYLINE
  2
AcDbPolyline
  3
AutoCAD 2000
 90
        0
280
     0
281
     1
  0
CLASS
  1
HATCH
  2
AcDbHatch
  3
AutoCAD 2000
 90
        0
280
     0
281
     1
  0
CLASS
  1
ACDBPLACEHOLDER
  2
AcDbPlaceHolder
  3
ObjectDBX Classes
 90
        0
280
     0
281
     0
  0
CLASS
  1
LAYOUT
  2
AcDbLayout
  3
ObjectDBX Classes
 90
        0
280
     0
281
     0
  0
ENDSEC
  0
SECTION
  2
TABLES
  0
TABLE
  2
VPORT
  5
8
330
0
100
AcDbSymbolTable
 70
     1
  0
VPORT
  5
29
330
8
100
AcDbSymbolTableRecord
100
AcDbViewportTableRecord
  2
*ACTIVE
 70
     0
 10
0.0
 20
0.0
 11
1.0
 21
1.0
 12
11.26
 22
4.5
 13
0.0
 23
0.0
 14
0.5
 24
0.5
 15
0.5
 25
0.5
 16
0.0
 26
0.0
 36
1.0
 17
0.0
 27
0.0
 37
0.0
 40
9.0
 41
2.503333333333333
 42
50.0
 43
0.0
 44
0.0
 50
0.0
 51
0.0
 71
     0
 72
   100
 73
     1
 74
     3
 75
     0
 76
     0
 77
     0
 78
     0
  0
ENDTAB
  0
TABLE
  2
LTYPE
  5
5
330
0
100
AcDbSymbolTable
 70
     2
  0
LTYPE
  5
14
330
5
100
AcDbSymbolTableRecord
100
AcDbLinetypeTableRecord
  2
BYBLOCK
 70
     0
  3

 72
    65
 73
     0
 40
0.0
  0
LTYPE
  5
15
330
5
100
AcDbSymbolTableRecord
100
AcDbLinetypeTableRecord
  2
BYLAYER
 70
     0
  3

 72
    65
 73
     0
 40
0.0
  0
LTYPE
  5
16
330
5
100
AcDbSymbolTableRecord
100
AcDbLinetypeTableRecord
  2
CONTINUOUS
 70
     0
  3
Solid line
 72
    65
 73
     0
 40
0.0
  0
LTYPE
  5
40
330
5
100
AcDbSymbolTableRecord
100
AcDbLinetypeTableRecord
  2
CONTINUOUS2
 70
     0
  3
Solid line
 72
    65
 73
     0
 40
0.0
  0
ENDTAB
  0
TABLE
  2
LAYER
  5
2
330
0
100
AcDbSymbolTable
 70
     9
  0
LAYER
  5
10
330
2
100
AcDbSymbolTableRecord
100
AcDbLayerTableRecord
  2
0
 70
     0
 62
     7
  6
CONTINUOUS
  0
LAYER
  5
42
330
2
100
AcDbSymbolTableRecord
100
AcDbLayerTableRecord
  2
CAD
 70
     0
 62
     7
  6
CONTINUOUS
  0
LAYER
  5
43
330
2
100
AcDbSymbolTableRecord
100
AcDbLayerTableRecord
  2
DIES
 70
     0
 62
     7
  6
CONTINUOUS
  0
LAYER
  5
44
330
2
100
AcDbSymbolTableRecord
100
AcDbLayerTableRecord
  2
STOCK
 70
     0
 62
     7
  6
CONTINUOUS
  0
LAYER
  5
45
330
2
100
AcDbSymbolTableRecord
100
AcDbLayerTableRecord
  2
DIMENSIONS
 70
     0
 62
     7
  6
CONTINUOUS
  0
LAYER
  5
46
330
2
100
AcDbSymbolTableRecord
100
AcDbLayerTableRecord
  2
DIE_PATTERN
 70
     0
 62
     7
  6
CONTINUOUS
  0
LAYER
  5
47
330
2
100
AcDbSymbolTableRecord
100
AcDbLayerTableRecord
  2
FRAME
 70
     0
 62
     7
  6
CONTINUOUS
  0
LAYER
  5
48
330
2
100
AcDbSymbolTableRecord
100
AcDbLayerTableRecord
  2
STIFFNERS
 70
     0
 62
     7
  6
CONTINUOUS
  0
LAYER
  5
7E
330
2
100
AcDbSymbolTableRecord
100
AcDbLayerTableRecord
  2
DEFPOINTS
 70
     0
 62
     7
  6
CONTINUOUS
  0
ENDTAB
  0
TABLE
  2
STYLE
  5
3
330
0
100
AcDbSymbolTable
 70
     2
  0
STYLE
  5
11
330
3
100
AcDbSymbolTableRecord
100
AcDbTextStyleTableRecord
  2
STANDARD
 70
     0
 40
0.0
 41
1.0
 50
0.0
 71
     0
 42
0.2
  3
txt
  4

  0
STYLE
  5
5B
330
3
100
AcDbSymbolTableRecord
100
AcDbTextStyleTableRecord
  2
_ARIAL_UNICODE_MS55
 70
     0
 40
0.2
 41
1.0
 50
0.0
 71
     0
 42
0.2
  3

  4

1001
ACAD
1000
@Arial Unicode MS
1071
        0
  0
ENDTAB
  0
TABLE
  2
VIEW
  5
6
330
0
100
AcDbSymbolTable
 70
     0
  0
ENDTAB
  0
TABLE
  2
UCS
  5
7
330
0
100
AcDbSymbolTable
 70
     0
  0
ENDTAB
  0
TABLE
  2
APPID
  5
9
330
0
100
AcDbSymbolTable
 70
     1
  0
APPID
  5
12
330
9
100
AcDbSymbolTableRecord
100
AcDbRegAppTableRecord
  2
ACAD
 70
     0
  0
ENDTAB
  0
TABLE
  2
DIMSTYLE
  5
A
330
0
100
AcDbSymbolTable
 70
     2
  0
DIMSTYLE
105
27
330
A
100
AcDbSymbolTableRecord
100
AcDbDimStyleTableRecord
  2
STANDARD
 70
     0
  3

  4

  5

  6

  7

 40
1.0
 41
0.18
 42
0.0625
 43
0.38
 44
0.18
 45
0.0
 46
0.0
 47
0.0
 48
0.0
140
0.18
141
0.09
142
0.0
143
25.4
144
1.0
145
0.0
146
1.0
147
0.09
 71
     0
 72
     0
 73
     1
 74
     1
 75
     0
 76
     0
 77
     0
 78
     0
170
     0
171
     2
172
     0
173
     0
174
     0
175
     0
176
     0
177
     0
178
     0
270
     2
271
     4
272
     4
273
     2
274
     2
340
11
275
     0
280
     0
281
     0
282
     0
283
     1
284
     0
285
     0
286
     0
287
     3
288
     0
  0
DIMSTYLE
105
41
102
{ACAD_REACTORS
330
5A
102
}
330
A
100
AcDbSymbolTableRecord
100
AcDbDimStyleTableRecord
  2
ODADIMSTYLE
 70
     0
  3

  4

  5

  6

  7

 40
1.0
 41
0.18
 42
0.0625
 43
0.38
 44
0.18
 45
0.0
 46
0.0
 47
0.0
 48
0.0
140
0.18
141
0.09
142
0.0
143
25.4
144
1.0
145
0.0
146
1.0
147
0.09
 71
     0
 72
     0
 73
     1
 74
     1
 75
     0
 76
     0
 77
     0
 78
     0
170
     0
171
     2
172
     0
173
     0
174
     0
175
     0
176
     0
177
     0
178
     0
270
     2
271
     4
272
     4
273
     2
274
     2
340
0
275
     0
280
     0
281
     0
282
     0
283
     1
284
     0
285
     0
286
     0
287
     3
288
     0
  0
ENDTAB
  0
TABLE
  2
BLOCK_RECORD
  5
1
330
0
100
AcDbSymbolTable
 70
     2
  0
BLOCK_RECORD
  5
1F
330
1
100
AcDbSymbolTableRecord
100
AcDbBlockTableRecord
  2
*MODEL_SPACE
  0
BLOCK_RECORD
  5
1B
330
1
100
AcDbSymbolTableRecord
100
AcDbBlockTableRecord
  2
*PAPER_SPACE
  0
BLOCK_RECORD
  5
7F
330
1
100
AcDbSymbolTableRecord
100
AcDbBlockTableRecord
  2
*D1
  0
ENDTAB
  0
ENDSEC
  0
SECTION
  2
BLOCKS
  0
BLOCK
  5
20
330
1F
100
AcDbEntity
  8
0
100
AcDbBlockBegin
  2
*MODEL_SPACE
 70
     0
 10
0.0
 20
0.0
 30
0.0
  3
*MODEL_SPACE
  1

  0
ENDBLK
  5
21
330
1F
100
AcDbEntity
  8
0
100
AcDbBlockEnd
  0
BLOCK
  5
1C
330
1B
100
AcDbEntity
 67
     1
  8
0
100
AcDbBlockBegin
  2
*PAPER_SPACE
 70
     0
 10
0.0
 20
0.0
 30
0.0
  3
*PAPER_SPACE
  1

  0
ENDBLK
  5
1D
330
1B
100
AcDbEntity
 67
     1
  8
0
100
AcDbBlockEnd
  0
BLOCK
  5
8A
330
7F
100
AcDbEntity
  8
0
100
AcDbBlockBegin
  2
*D1
 70
     1
 10
0.0
 20
0.0
 30
0.0
  3
*D1
  1

  0
LINE
  5
80
330
7F
100
AcDbEntity
  8
DIMENSIONS
 62
     0
100
AcDbLine
 10
11.00000156192329
 20
21.56249862580788
 30
0.0
 11
11.00000156192329
 21
21.73989519254429
 31
0.0
  0
LINE
  5
81
330
7F
100
AcDbEntity
  8
DIMENSIONS
 62
     0
100
AcDbLine
 10
15.00000150184932
 20
21.56249862580788
 30
0.0
 11
15.00000150184932
 21
21.73989519254429
 31
0.0
  0
LINE
  5
82
330
7F
100
AcDbEntity
  8
DIMENSIONS
 62
     0
100
AcDbLine
 10
11.07874171940361
 20
21.55989519254429
 30
0.0
 11
12.64984788308932
 21
21.55989519254429
 31
0.0
  0
LINE
  5
83
330
7F
100
AcDbEntity
  8
DIMENSIONS
 62
     0
100
AcDbLine
 10
14.921261344369
 20
21.55989519254429
 30
0.0
 11
13.62984788308932
 21
21.55989519254429
 31
0.0
  0
SOLID
  5
84
330
7F
100
AcDbEntity
  8
DIMENSIONS
 62
     0
100
AcDbTrace
 10
11.07874171940361
 20
21.57301855212435
 30
0.0
 11
11.07874171940361
 21
21.54677183296424
 31
0.0
 12
11.00000156192329
 22
21.55989519254429
 32
0.0
 13
11.00000156192329
 23
21.55989519254429
 33
0.0
  0
SOLID
  5
85
330
7F
100
AcDbEntity
  8
DIMENSIONS
 62
     0
100
AcDbTrace
 10
14.921261344369
 20
21.54677183296424
 30
0.0
 11
14.921261344369
 21
21.57301855212435
 31
0.0
 12
15.00000150184932
 22
21.55989519254429
 32
0.0
 13
15.00000150184932
 23
21.55989519254429
 33
0.0
  0
MTEXT
  5
86
330
7F
100
AcDbEntity
  8
DIMENSIONS
 62
     0
100
AcDbMText
 10
13.13984788308932
 20
21.55989519254429
 30
0.0
 40
0.2
 41
0.0
 71
     5
 72
     1
  1
\A1;4.000
  7
_ARIAL_UNICODE_MS55
  0
POINT
  5
87
330
7F
100
AcDbEntity
  8
DEFPOINTS
 62
     0
100
AcDbPoint
 10
11.00000156192329
 20
21.49999862580788
 30
0.0
  0
POINT
  5
88
330
7F
100
AcDbEntity
  8
DEFPOINTS
 62
     0
100
AcDbPoint
 10
15.00000150184932
 20
21.49999862580788
 30
0.0
  0
POINT
  5
89
330
7F
100
AcDbEntity
  8
DEFPOINTS
 62
     0
100
AcDbPoint
 10
15.00000150184932
 20
21.55989519254429
 30
0.0
  0
ENDBLK
  5
8B
330
7F
100
AcDbEntity
  8
0
100
AcDbBlockEnd
  0
ENDSEC
  0
SECTION
  2
ENTITIES
  0
ARC
  5
49
330
1F
100
AcDbEntity
  8
FRAME
  6
CONTINUOUS
 62
     5
100
AcDbCircle
 10
13.0
 20
19.99999999999999
 30
0.0
 40
0.4050000000000001
100
AcDbArc
 50
0.0
 51
180.0
  0
CIRCLE
  5
4A
330
1F
100
AcDbEntity
  8
FRAME
  6
CONTINUOUS
 62
     5
100
AcDbCircle
 10
17.25
 20
9.000000000000002
 30
0.0
 40
0.4050000000000001
  0
CIRCLE
  5
4B
330
1F
100
AcDbEntity
  8
FRAME
  6
CONTINUOUS
 62
     5
100
AcDbCircle
 10
8.75
 20
9.000000000000002
 30
0.0
 40
0.4050000000000001
  0
LINE
  5
4C
330
1F
100
AcDbEntity
  8
FRAME
  6
CONTINUOUS
 62
     5
100
AcDbLine
 10
12.595
 20
19.99999999999999
 30
0.0
 11
12.595
 21
10.0
 31
0.0
  0
LINE
  5
4D
330
1F
100
AcDbEntity
  8
FRAME
  6
CONTINUOUS
 62
     5
100
AcDbLine
 10
13.405
 20
10.0
 30
0.0
 11
13.405
 21
19.99999999999999
 31
0.0
  0
ARC
  5
4E
330
1F
100
AcDbEntity
  8
FRAME
  6
CONTINUOUS
 62
     5
100
AcDbCircle
 10
13.0
 20
10.0
 30
0.0
 40
0.4050000000000001
100
AcDbArc
 50
180.0
 51
0.0
  0
LINE
  5
4F
330
1F
100
AcDbEntity
  8
FRAME
  6
CONTINUOUS
 62
     5
100
AcDbLine
 10
11.0
 20
21.5
 30
0.0
 11
15.0
 21
21.5
 31
0.0
  0
CIRCLE
  5
50
330
1F
100
AcDbEntity
  8
DIES
  6
CONTINUOUS
 62
     5
100
AcDbCircle
 10
8.75
 20
9.000000000000002
 30
0.0
 40
1.9375
  0
CIRCLE
  5
51
330
1F
100
AcDbEntity
  8
DIES
  6
CONTINUOUS
 62
     5
100
AcDbCircle
 10
17.25
 20
9.000000000000002
 30
0.0
 40
1.9375
  0
CIRCLE
  5
52
330
1F
100
AcDbEntity
  8
DIES
  6
CONTINUOUS
 62
     5
100
AcDbCircle
 10
12.92130765508948
 20
15.75636072333653
 30
0.0
 40
1.9375
  0
CIRCLE
  5
53
330
1F
100
AcDbEntity
  8
FRAME
  6
CONTINUOUS
 62
     5
100
AcDbCircle
 10
6.000000000000001
 20
6.25
 30
0.0
 40
0.4050000000000001
  0
CIRCLE
  5
54
330
1F
100
AcDbEntity
  8
FRAME
  6
CONTINUOUS
 62
     5
100
AcDbCircle
 10
20.0
 20
6.25
 30
0.0
 40
0.4050000000000001
  0
CIRCLE
  5
55
330
1F
100
AcDbEntity
  8
FRAME
  6
CONTINUOUS
 62
     5
100
AcDbCircle
 10
7.375
 20
7.625000000000001
 30
0.0
 40
0.4050000000000001
  0
CIRCLE
  5
56
330
1F
100
AcDbEntity
  8
FRAME
  6
CONTINUOUS
 62
     5
100
AcDbCircle
 10
18.625
 20
7.625000000000001
 30
0.0
 40
0.4050000000000001
  0
CIRCLE
  5
57
330
1F
100
AcDbEntity
  8
DIES
  6
CONTINUOUS
 62
     5
100
AcDbCircle
 10
12.99786826061635
 20
9.962921174389932
 30
0.0
 40
1.9375
  0
CIRCLE
  5
58
330
1F
100
AcDbEntity
  8
FRAME
  6
CONTINUOUS
 62
     5
100
AcDbCircle
 10
8.000000000000002
 20
6.25
 30
0.0
 40
0.4050000000000001
  0
CIRCLE
  5
59
330
1F
100
AcDbEntity
  8
FRAME
  6
CONTINUOUS
 62
     5
100
AcDbCircle
 10
18.0
 20
6.25
 30
0.0
 40
0.4050000000000001
  0
DIMENSION
  5
5A
330
1F
100
AcDbEntity
  8
DIMENSIONS
 62
     5
100
AcDbDimension
  2
*D1
 10
15.00000150184932
 20
21.55989519254429
 30
0.0
 11
13.13984788308932
 21
21.55989519254429
 31
0.0
 70
   160
  1
<>
  3
ODADIMSTYLE
100
AcDbAlignedDimension
 13
11.00000156192329
 23
21.49999862580788
 33
0.0
 14
15.00000150184932
 24
21.49999862580788
 34
0.0
100
AcDbRotatedDimension
1001
ACAD
1000
DSTYLE
1002
{
1070
   340
1005
5B
1070
    41
1040
0.078740157480315
1070
   272
1070
     3
1070
   179
1070
     3
1070
   271
1070
     3
1070
   140
1040
0.1968503937007874
1002
}
  0
LINE
  5
8C
330
1F
100
AcDbEntity
  8
FRAME
  6
CONTINUOUS
 62
     5
100
AcDbLine
 10
1.0
 20
1.0
 30
0.0
 11
25.0
 21
1.0
 31
0.0
  0
LINE
  5
8D
330
1F
100
AcDbEntity
  8
FRAME
  6
CONTINUOUS
 62
     5
100
AcDbLine
 10
0.9999999999999983
 20
1.0
 30
0.0
 11
0.9999999999999986
 21
5.410826650860656
 31
0.0
  0
LINE
  5
8E
330
1F
100
AcDbEntity
  8
FRAME
  6
CONTINUOUS
 62
     5
100
AcDbLine
 10
1.31940670355151
 20
6.495080390504842
 30
0.0
 11
11.0
 21
21.5
 31
0.0
  0
LINE
  5
8F
330
1F
100
AcDbEntity
  8
FRAME
  6
CONTINUOUS
 62
     5
100
AcDbLine
 10
25.0
 20
5.410826650860658
 30
0.0
 11
25.0
 21
1.0
 31
0.0
  0
LINE
  5
90
330
1F
100
AcDbEntity
  8
FRAME
  6
CONTINUOUS
 62
     5
100
AcDbLine
 10
15.0
 20
21.5
 30
0.0
 11
24.68059329644849
 21
6.495080390504842
 31
0.0
  0
CIRCLE
  5
91
330
1F
100
AcDbEntity
  8
DIE_PATTERN
  6
CONTINUOUS
 62
     5
100
AcDbCircle
 10
5.011672801077679
 20
23.03548032822604
 30
0.0
 40
4.5
  0
CIRCLE
  5
92
330
1F
100
AcDbEntity
  8
DIE_PATTERN
  6
CONTINUOUS
 62
     5
100
AcDbCircle
 10
5.011672801077679
 20
23.03548032822604
 30
0.0
 40
1.9375
  0
ARC
  5
93
330
1F
100
AcDbEntity
  8
FRAME
  6
CONTINUOUS
 62
     5
100
AcDbCircle
 10
2.999999999999999
 20
5.410826650860656
 30
0.0
 40
2.0
100
AcDbArc
 50
147.1714582085875
 51
180.0
  0
ARC
  5
94
330
1F
100
AcDbEntity
  8
FRAME
  6
CONTINUOUS
 62
     5
100
AcDbCircle
 10
23.0
 20
5.410826650860655
 30
0.0
 40
2.0
100
AcDbArc
 50
0.0
 51
32.82854179141255
  0
LINE
  5
95
330
1F
100
AcDbEntity
  8
FRAME
  6
CONTINUOUS
 62
     5
100
AcDbLine
 10
0.0
 20
21.45461092680977
 30
0.0
 11
0.0
 21
21.53791423685991
 31
0.0
  0
LINE
  5
96
330
1F
100
AcDbEntity
  8
FRAME
  6
CONTINUOUS
 62
     5
100
AcDbLine
 10
0.0
 20
21.45461092680977
 30
0.0
 11
0.0
 21
21.53791423685991
 31
0.0
  0
LINE
  5
97
330
1F
100
AcDbEntity
  8
STIFFNERS
  6
CONTINUOUS
 62
     5
100
AcDbLine
 10
32.69160698368823
 20
1.872852269736765
 30
0.0
 11
32.69160698368823
 21
22.37285226973677
 31
0.0
  0
LINE
  5
98
330
1F
100
AcDbEntity
  8
STIFFNERS
  6
CONTINUOUS
 62
     5
100
AcDbLine
 10
32.69160698368823
 20
1.872852269736765
 30
0.0
 11
32.55591670832729
 21
1.872852269736765
 31
0.0
  0
LINE
  5
99
330
1F
100
AcDbEntity
  8
STIFFNERS
  6
CONTINUOUS
 62
     5
100
AcDbLine
 10
32.69160698368823
 20
22.37285226973677
 30
0.0
 11
31.25410698368823
 21
22.37285226973677
 31
0.0
  0
LINE
  5
9A
330
1F
100
AcDbEntity
  8
STIFFNERS
  6
CONTINUOUS
 62
     5
100
AcDbLine
 10
30.25410698368823
 20
23.37285226973678
 30
0.0
 11
30.25410698368823
 21
25.37285226973677
 31
0.0
  0
LINE
  5
9B
330
1F
100
AcDbEntity
  8
STIFFNERS
  6
CONTINUOUS
 62
     5
100
AcDbLine
 10
30.25410698368823
 20
25.37285226973677
 30
0.0
 11
29.69160698368823
 21
25.37285226973677
 31
0.0
  0
LINE
  5
9C
330
1F
100
AcDbEntity
  8
STIFFNERS
  6
CONTINUOUS
 62
     5
100
AcDbLine
 10
28.69160698368823
 20
24.37285226973677
 30
0.0
 11
28.69160698368823
 21
22.44563538810365
 31
0.0
  0
LINE
  5
9D
330
1F
100
AcDbEntity
  8
STIFFNERS
  6
CONTINUOUS
 62
     5
100
AcDbLine
 10
31.56645564419319
 20
2.728053089619581
 30
0.0
 11
28.70214591955413
 21
22.30083620798647
 31
0.0
  0
ARC
  5
9E
330
1F
100
AcDbEntity
  8
STIFFNERS
  6
CONTINUOUS
 62
     5
100
AcDbCircle
 10
29.69160698368823
 20
24.37285226973677
 30
0.0
 40
1.0
100
AcDbArc
 50
90.0
 51
180.0
  0
ARC
  5
9F
330
1F
100
AcDbEntity
  8
STIFFNERS
  6
CONTINUOUS
 62
     5
100
AcDbCircle
 10
29.69160698368823
 20
22.44563538810365
 30
0.0
 40
1.0
100
AcDbArc
 50
180.0
 51
188.3256503304269
  0
ARC
  5
A0
330
1F
100
AcDbEntity
  8
STIFFNERS
  6
CONTINUOUS
 62
     5
100
AcDbCircle
 10
32.55591670832729
 20
2.872852269736768
 30
0.0
 40
1.0
100
AcDbArc
 50
188.3256503304269
 51
270.0
  0
ARC
  5
A1
330
1F
100
AcDbEntity
  8
STIFFNERS
  6
CONTINUOUS
 62
     5
100
AcDbCircle
 10
31.25410698368823
 20
23.37285226973678
 30
0.0
 40
1.0
100
AcDbArc
 50
180.0
 51
270.0
  0
LINE
  5
A2
330
1F
100
AcDbEntity
  8
STIFFNERS
  6
CONTINUOUS
 62
     5
100
AcDbLine
 10
26.52572092238446
 20
25.24789730466155
 30
0.0
 11
26.52572092238446
 21
4.747897304661549
 31
0.0
  0
LINE
  5
A3
330
1F
100
AcDbEntity
  8
STIFFNERS
  6
CONTINUOUS
 62
     5
100
AcDbLine
 10
26.52572092238446
 20
25.24789730466155
 30
0.0
 11
26.6614111977454
 21
25.24789730466155
 31
0.0
  0
LINE
  5
A4
330
1F
100
AcDbEntity
  8
STIFFNERS
  6
CONTINUOUS
 62
     5
100
AcDbLine
 10
26.52572092238446
 20
4.747897304661549
 30
0.0
 11
27.96322092238446
 21
4.747897304661549
 31
0.0
  0
LINE
  5
A5
330
1F
100
AcDbEntity
  8
STIFFNERS
  6
CONTINUOUS
 62
     5
100
AcDbLine
 10
28.96322092238445
 20
3.747897304661549
 30
0.0
 11
28.96322092238445
 21
1.747897304661549
 31
0.0
  0
LINE
  5
A6
330
1F
100
AcDbEntity
  8
STIFFNERS
  6
CONTINUOUS
 62
     5
100
AcDbLine
 10
28.96322092238445
 20
1.747897304661549
 30
0.0
 11
29.52572092238446
 21
1.747897304661549
 31
0.0
  0
LINE
  5
A7
330
1F
100
AcDbEntity
  8
STIFFNERS
  6
CONTINUOUS
 62
     5
100
AcDbLine
 10
30.52572092238445
 20
2.747897304661549
 30
0.0
 11
30.52572092238445
 21
4.67511418629466
 31
0.0
  0
LINE
  5
A8
330
1F
100
AcDbEntity
  8
STIFFNERS
  6
CONTINUOUS
 62
     5
100
AcDbLine
 10
27.6508722618795
 20
24.39269648477874
 30
0.0
 11
30.51518198651856
 21
4.819913366411848
 31
0.0
  0
ARC
  5
A9
330
1F
100
AcDbEntity
  8
STIFFNERS
  6
CONTINUOUS
 62
     5
100
AcDbCircle
 10
29.52572092238446
 20
2.747897304661549
 30
0.0
 40
1.0
100
AcDbArc
 50
270.0
 51
0.0
  0
ARC
  5
AA
330
1F
100
AcDbEntity
  8
STIFFNERS
  6
CONTINUOUS
 62
     5
100
AcDbCircle
 10
29.52572092238446
 20
4.67511418629466
 30
0.0
 40
1.0
100
AcDbArc
 50
0.0
 51
8.325650330426937
  0
ARC
  5
AB
330
1F
100
AcDbEntity
  8
STIFFNERS
  6
CONTINUOUS
 62
     5
100
AcDbCircle
 10
26.6614111977454
 20
24.24789730466155
 30
0.0
 40
1.0
100
AcDbArc
 50
8.325650330426937
 51
90.0
  0
ARC
  5
AC
330
1F
100
AcDbEntity
  8
STIFFNERS
  6
CONTINUOUS
 62
     5
100
AcDbCircle
 10
27.96322092238446
 20
3.747897304661549
 30
0.0
 40
1.0
100
AcDbArc
 50
0.0
 51
90.0
  0
VIEWPORT
  5
3F
330
1B
100
AcDbEntity
 67
     1
  8
0
100
AcDbViewport
 10
5.375
 20
4.125
 30
0.0
 40
14.63
 41
9.0
 68
     1
 69
     1
1001
ACAD
1000
MVIEW
1002
{
1070
    16
1010
0.0
1020
0.0
1030
0.0
1010
0.0
1020
0.0
1030
1.0
1040
0.0
1040
9.0
1040
5.375
1040
4.125
1040
50.0
1040
0.0
1040
0.0
1070
     0
1070
   100
1070
     0
1070
     3
1070
     0
1070
     0
1070
     0
1070
     0
1040
0.0
1040
0.0
1040
0.0
1040
0.5
1040
0.5
1040
0.0
1040
0.5
1070
     0
1002
{
1002
}
1002
}
  0
ENDSEC
  0
SECTION
  2
OBJECTS
  0
DICTIONARY
  5
C
330
0
100
AcDbDictionary
  3
ACAD_GROUP
350
D
  3
ACAD_LAYOUT
350
1A
  3
ACAD_MATERIAL
350
3B
  3
ACAD_MLEADERSTYLE
350
CF
  3
ACAD_MLINESTYLE
350
17
  3
ACAD_PLOTSETTINGS
350
19
  3
ACAD_SCALELIST
350
5C
  3
ACAD_VISUALSTYLE
350
2A
  3
ACDBHEADERROUNDTRIPXREC
350
AD
  3
ACDBVARIABLEDICTIONARY
350
CD
  0
DICTIONARY
  5
D
102
{ACAD_REACTORS
330
C
102
}
330
C
100
AcDbDictionary
  0
DICTIONARY
  5
1A
102
{ACAD_REACTORS
330
C
102
}
330
C
100
AcDbDictionary
  0
DICTIONARY
  5
3B
102
{ACAD_REACTORS
330
C
102
}
330
C
100
AcDbDictionary
  3
BYBLOCK
350
3D
  3
BYLAYER
350
3C
  3
GLOBAL
350
3E
  0
DICTIONARY
  5
CF
102
{ACAD_REACTORS
330
C
102
}
330
C
100
AcDbDictionary
  0
DICTIONARY
  5
17
102
{ACAD_REACTORS
330
C
102
}
330
C
100
AcDbDictionary
  3
STANDARD
350
18
  0
DICTIONARY
  5
19
102
{ACAD_REACTORS
330
C
102
}
330
C
100
AcDbDictionary
  0
DICTIONARY
  5
5C
102
{ACAD_REACTORS
330
C
102
}
330
C
100
AcDbDictionary
  3
A0
350
5D
  3
A1
350
5E
  3
A2
350
5F
  3
A3
350
60
  3
A4
350
61
  3
A5
350
62
  3
A6
350
63
  3
A7
350
64
  3
A8
350
65
  3
A9
350
66
  3
B0
350
67
  3
B1
350
68
  3
B2
350
69
  3
B3
350
6A
  3
B4
350
6B
  3
B5
350
6C
  3
B6
350
6D
  3
B7
350
6E
  3
B8
350
6F
  3
B9
350
70
  3
C0
350
71
  3
C1
350
72
  3
C2
350
73
  3
C3
350
74
  3
C4
350
75
  3
C5
350
76
  3
C6
350
77
  3
C7
350
78
  3
C8
350
79
  3
C9
350
7A
  3
D0
350
7B
  3
D1
350
7C
  3
D2
350
7D
  0
DICTIONARY
  5
2A
102
{ACAD_REACTORS
330
C
102
}
330
C
100
AcDbDictionary
  3
2DWIREFRAME
350
2F
  3
3D_HIDDEN
350
31
  3
3DWIREFRAME
350
30
  3
BASIC
350
32
  3
BRIGHTEN
350
36
  3
COLORCHANGE
350
3A
  3
CONCEPTUAL
350
34
  3
DIM
350
35
  3
FACEPATTERN
350
39
  3
FLAT
350
2B
  3
FLATWITHEDGES
350
2C
  3
GOURAUD
350
2D
  3
GOURAUDWITHEDGES
350
2E
  3
LINEPATTERN
350
38
  3
REALISTIC
350
33
  3
THICKEN
350
37
  0
DICTIONARY
  5
AD
102
{ACAD_REACTORS
330
C
102
}
330
C
100
AcDbDictionary
  3
CEPSNTYPE
350
B6
  3
DIMSTYLEDATA
350
CC
  3
FINGERPRINTGUID
350
B7
  3
HYPERLINKBASE
350
B0
  3
INSUNITS
350
B5
  3
LAYOUTDICT
350
B2
  3
LWETCUNION
350
B4
  3
PLOTSETDICT
350
B3
  3
PSVPSCALE
350
B9
  3
PUCSBASE
350
BC
  3
PUCSORGBACK
350
C2
  3
PUCSORGBOTTOM
350
BE
  3
PUCSORGFRONT
350
C1
  3
PUCSORGLEFT
350
BF
  3
PUCSORGRIGHT
350
C0
  3
PUCSORGTOP
350
BD
  3
PUCSORTHOREF
350
BA
  3
PUCSORTHOVIEW
350
BB
  3
STYLESHEET
350
B1
  3
TSTACKALIGN
350
AE
  3
TSTACKSIZE
350
AF
  3
UCSBASE
350
C5
  3
UCSORGBACK
350
CB
  3
UCSORGBOTTOM
350
C7
  3
UCSORGFRONT
350
CA
  3
UCSORGLEFT
350
C8
  3
UCSORGRIGHT
350
C9
  3
UCSORGTOP
350
C6
  3
UCSORTHOREF
350
C3
  3
UCSORTHOVIEW
350
C4
  3
VERSIONGUID
350
B8
  0
DICTIONARY
  5
CD
102
{ACAD_REACTORS
330
C
102
}
330
C
100
AcDbDictionary
  3
CANNOSCALE
350
D0
  3
DIMASSOC
350
D1
  3
HIDETEXT
350
D2
  0
MATERIAL
  5
3D
102
{ACAD_REACTORS
330
3B
102
}
102
{ACAD_XDICTIONARY
360
D5
102
}
330
3B
100
AcDbMaterial
  1
ByBlock
  0
MATERIAL
  5
3C
102
{ACAD_REACTORS
330
3B
102
}
102
{ACAD_XDICTIONARY
360
D3
102
}
330
3B
100
AcDbMaterial
  1
ByLayer
  0
MATERIAL
  5
3E
102
{ACAD_REACTORS
330
3B
102
}
102
{ACAD_XDICTIONARY
360
D7
102
}
330
3B
100
AcDbMaterial
  1
Global
  0
MLINESTYLE
  5
18
102
{ACAD_REACTORS
330
17
102
}
330
17
100
AcDbMlineStyle
  2
Standard
 70
     0
  3

 62
   256
 51
90.0
 52
90.0
 71
     2
 49
0.5
 62
   256
  6
BYLAYER
 49
-0.5
 62
   256
  6
BYLAYER
  0
ACAD_PROXY_OBJECT
  5
5D
102
{ACAD_REACTORS
330
5C
102
}
330
5C
100
AcDbProxyObject
 90
      499
 91
      503
 93
       41
310
903313A31580
  0
ACAD_PROXY_OBJECT
  5
5E
102
{ACAD_REACTORS
330
5C
102
}
330
5C
100
AcDbProxyObject
 90
      499
 91
      503
 93
      105
310
903313A324000000000000004000
  0
ACAD_PROXY_OBJECT
  5
5F
102
{ACAD_REACTORS
330
5C
102
}
330
5C
100
AcDbProxyObject
 90
      499
 91
      503
 93
      105
310
903313A344000000000000104000
  0
ACAD_PROXY_OBJECT
  5
60
102
{ACAD_REACTORS
330
5C
102
}
330
5C
100
AcDbProxyObject
 90
      499
 91
      503
 93
      105
310
903313A354000000000000144000
  0
ACAD_PROXY_OBJECT
  5
61
102
{ACAD_REACTORS
330
5C
102
}
330
5C
100
AcDbProxyObject
 90
      499
 91
      503
 93
      105
310
903313A384000000000000204000
  0
ACAD_PROXY_OBJECT
  5
62
102
{ACAD_REACTORS
330
5C
102
}
330
5C
100
AcDbProxyObject
 90
      499
 91
      503
 93
      113
310
904313A31304000000000000244000
  0
ACAD_PROXY_OBJECT
  5
63
102
{ACAD_REACTORS
330
5C
102
}
330
5C
100
AcDbProxyObject
 90
      499
 91
      503
 93
      113
310
904313A31364000000000000304000
  0
ACAD_PROXY_OBJECT
  5
64
102
{ACAD_REACTORS
330
5C
102
}
330
5C
100
AcDbProxyObject
 90
      499
 91
      503
 93
      113
310
904313A32304000000000000344000
  0
ACAD_PROXY_OBJECT
  5
65
102
{ACAD_REACTORS
330
5C
102
}
330
5C
100
AcDbProxyObject
 90
      499
 91
      503
 93
      113
310
904313A333040000000000003E4000
  0
ACAD_PROXY_OBJECT
  5
66
102
{ACAD_REACTORS
330
5C
102
}
330
5C
100
AcDbProxyObject
 90
      499
 91
      503
 93
      113
310
904313A34304000000000000444000
  0
ACAD_PROXY_OBJECT
  5
67
102
{ACAD_REACTORS
330
5C
102
}
330
5C
100
AcDbProxyObject
 90
      499
 91
      503
 93
      113
310
904313A35304000000000000494000
  0
ACAD_PROXY_OBJECT
  5
68
102
{ACAD_REACTORS
330
5C
102
}
330
5C
100
AcDbProxyObject
 90
      499
 91
      503
 93
      121
310
905313A3130304000000000000594000
  0
ACAD_PROXY_OBJECT
  5
69
102
{ACAD_REACTORS
330
5C
102
}
330
5C
100
AcDbProxyObject
 90
      499
 91
      503
 93
      105
310
903323A310000000000000010100
  0
ACAD_PROXY_OBJECT
  5
6A
102
{ACAD_REACTORS
330
5C
102
}
330
5C
100
AcDbProxyObject
 90
      499
 91
      503
 93
      105
310
903343A310000000000000410100
  0
ACAD_PROXY_OBJECT
  5
6B
102
{ACAD_REACTORS
330
5C
102
}
330
5C
100
AcDbProxyObject
 90
      499
 91
      503
 93
      105
310
903383A310000000000000810100
  0
ACAD_PROXY_OBJECT
  5
6C
102
{ACAD_REACTORS
330
5C
102
}
330
5C
100
AcDbProxyObject
 90
      499
 91
      503
 93
      113
310
90431303A310000000000000910100
  0
ACAD_PROXY_OBJECT
  5
6D
102
{ACAD_REACTORS
330
5C
102
}
330
5C
100
AcDbProxyObject
 90
      499
 91
      503
 93
      121
310
9053130303A310000000000001650100
  0
ACAD_PROXY_OBJECT
  5
6E
102
{ACAD_REACTORS
330
5C
102
}
330
5C
100
AcDbProxyObject
 90
      499
 91
      503
 93
      257
310
90E312F31323822203D2031272D3022000000000000200FC000000000000284000
  0
ACAD_PROXY_OBJECT
  5
6F
102
{ACAD_REACTORS
330
5C
102
}
330
5C
100
AcDbProxyObject
 90
      499
 91
      503
 93
      249
310
90D312F363422203D2031272D3022000000000000240FC000000000000284000
  0
ACAD_PROXY_OBJECT
  5
70
102
{ACAD_REACTORS
330
5C
102
}
330
5C
100
AcDbProxyObject
 90
      499
 91
      503
 93
      249
310
90D312F333222203D2031272D3022000000000000280FC000000000000284000
  0
ACAD_PROXY_OBJECT
  5
71
102
{ACAD_REACTORS
330
5C
102
}
330
5C
100
AcDbProxyObject
 90
      499
 91
      503
 93
      249
310
90D312F313622203D2031272D30220000000000002C0FC000000000000284000
  0
ACAD_PROXY_OBJECT
  5
72
102
{ACAD_REACTORS
330
5C
102
}
330
5C
100
AcDbProxyObject
 90
      499
 91
      503
 93
      249
310
90D332F333222203D2031272D30220000000000002E0FC000000000000284000
  0
ACAD_PROXY_OBJECT
  5
73
102
{ACAD_REACTORS
330
5C
102
}
330
5C
100
AcDbProxyObject
 90
      499
 91
      503
 93
      241
310
90C312F3822203D2031272D3022000000000000300FC000000000000284000
  0
ACAD_PROXY_OBJECT
  5
74
102
{ACAD_REACTORS
330
5C
102
}
330
5C
100
AcDbProxyObject
 90
      499
 91
      503
 93
      249
310
90D332F313622203D2031272D3022000000000000320FC000000000000284000
  0
ACAD_PROXY_OBJECT
  5
75
102
{ACAD_REACTORS
330
5C
102
}
330
5C
100
AcDbProxyObject
 90
      499
 91
      503
 93
      241
310
90C312F3422203D2031272D3022000000000000340FC000000000000284000
  0
ACAD_PROXY_OBJECT
  5
76
102
{ACAD_REACTORS
330
5C
102
}
330
5C
100
AcDbProxyObject
 90
      499
 91
      503
 93
      241
310
90C332F3822203D2031272D3022000000000000360FC000000000000284000
  0
ACAD_PROXY_OBJECT
  5
77
102
{ACAD_REACTORS
330
5C
102
}
330
5C
100
AcDbProxyObject
 90
      499
 91
      503
 93
      241
310
90C312F3222203D2031272D3022000000000000380FC000000000000284000
  0
ACAD_PROXY_OBJECT
  5
78
102
{ACAD_REACTORS
330
5C
102
}
330
5C
100
AcDbProxyObject
 90
      499
 91
      503
 93
      241
310
90C332F3422203D2031272D30220000000000003A0FC000000000000284000
  0
ACAD_PROXY_OBJECT
  5
79
102
{ACAD_REACTORS
330
5C
102
}
330
5C
100
AcDbProxyObject
 90
      499
 91
      503
 93
      161
310
90A3122203D2031272D30224000000000000284000
  0
ACAD_PROXY_OBJECT
  5
7A
102
{ACAD_REACTORS
330
5C
102
}
330
5C
100
AcDbProxyObject
 90
      499
 91
      503
 93
      257
310
90E312D312F3222203D2031272D30220000000000003E0FC000000000000284000
  0
ACAD_PROXY_OBJECT
  5
7B
102
{ACAD_REACTORS
330
5C
102
}
330
5C
100
AcDbProxyObject
 90
      499
 91
      503
 93
      225
310
90A3322203D2031272D302200000000000002100000000000000284000
  0
ACAD_PROXY_OBJECT
  5
7C
102
{ACAD_REACTORS
330
5C
102
}
330
5C
100
AcDbProxyObject
 90
      499
 91
      503
 93
      225
310
90A3622203D2031272D302200000000000006100000000000000284000
  0
ACAD_PROXY_OBJECT
  5
7D
102
{ACAD_REACTORS
330
5C
102
}
330
5C
100
AcDbProxyObject
 90
      499
 91
      503
 93
      249
310
90D31272D3022203D2031272D30220000000000000A100000000000000284000
  0
ACAD_PROXY_OBJECT
  5
2F
102
{ACAD_REACTORS
330
2A
102
}
330
2A
100
AcDbProxyObject
 90
      499
 91
      501
 93
      436
310
42CC9915DA5C99599C985B595049028333333333333E3BF0000000000000FB0107901411070040501600405405064090741402480A0340
1001
ACAD
1000
AcDbSavedByObjectVersion
1070
     0
  0
ACAD_PROXY_OBJECT
  5
31
102
{ACAD_REACTORS
330
2A
102
}
330
2A
100
AcDbProxyObject
 90
      499
 91
      501
 93
      500
310
424CD108121A5919195B90640502408333333333333E3BF0000000000000FB01079024090700405020000000000001110200405405064090740C02480A0340
1001
ACAD
1000
AcDbSavedByObjectVersion
1070
     0
  0
ACAD_PROXY_OBJECT
  5
30
102
{ACAD_REACTORS
330
2A
102
}
330
2A
100
AcDbProxyObject
 90
      499
 91
      501
 93
      436
310
42CCD915DA5C99599C985B595059028333333333333E3BF0000000000000FB0107901411070040501600405405064090741402480A0340
1001
ACAD
1000
AcDbSavedByObjectVersion
1070
     0
  0
ACAD_PROXY_OBJECT
  5
32
102
{ACAD_REACTORS
330
2A
102
}
330
2A
100
AcDbProxyObject
 90
      499
 91
      501
 93
      388
310
4150985CDA58D07406404333333333333E3BF0000000000000FB0107A41107004050150841D405064090741402480A0350
1001
ACAD
1000
AcDbSavedByObjectVersion
1070
     0
  0
ACAD_PROXY_OBJECT
  5
36
102
{ACAD_REACTORS
330
2A
102
}
330
2A
100
AcDbProxyObject
 90
      499
 91
      501
 93
      428
310
42109C9A59DA1D195B90C409028333333333333E3BF0000000000000FB010790141107004050150841D405064090741402480A029950
1001
ACAD
1000
AcDbSavedByObjectVersion
1070
     0
  0
ACAD_PROXY_OBJECT
  5
3A
102
{ACAD_REACTORS
330
2A
102
}
330
2A
100
AcDbProxyObject
 90
      499
 91
      501
 93
      452
310
42D0DBDB1BDC90DA185B99D95104090240C333333333333E3BF0000000000000FB0108901411070040501508421405064090741402480A0350
1001
ACAD
1000
AcDbSavedByObjectVersion
1070
     0
  0
ACAD_PROXY_OBJECT
  5
34
102
{ACAD_REACTORS
330
2A
102
}
330
2A
100
AcDbProxyObject
 90
      499
 91
      501
 93
      500
310
4290DBDB98D95C1D1D585B10940D028333333333333E3BF0000000000000FB0107902409070040501000000000000111010841D405064090740C02480A0340
1001
ACAD
1000
AcDbSavedByObjectVersion
1070
     0
  0
ACAD_PROXY_OBJECT
  5
35
102
{ACAD_REACTORS
330
2A
102
}
330
2A
100
AcDbProxyObject
 90
      499
 91
      501
 93
      412
310
40D11A5B50B409028333333333333E3BF0000000000000FB010790141107004050150841D405064090741402480A02677FFFFFD0
1001
ACAD
1000
AcDbSavedByObjectVersion
1070
     0
  0
ACAD_PROXY_OBJECT
  5
39
102
{ACAD_REACTORS
330
2A
102
}
330
2A
100
AcDbProxyObject
 90
      499
 91
      501
 93
      444
310
42D19858D95C185D1D195C9B90F409028333333333333E3BF0000000000000FB010790141107004050150841D405064090741402480A0350
1001
ACAD
1000
AcDbSavedByObjectVersion
1070
     0
  0
ACAD_PROXY_OBJECT
  5
2B
102
{ACAD_REACTORS
330
2A
102
}
330
2A
100
AcDbProxyObject
 90
      499
 91
      501
 93
      388
310
41119B185D240901404333333333333E3BF0000000000000F9010740A41107004050150841D405064090741402480A1B50
1001
ACAD
1000
AcDbSavedByObjectVersion
1070
     0
  0
ACAD_PROXY_OBJECT
  5
2C
102
{ACAD_REACTORS
330
2A
102
}
330
2A
100
AcDbProxyObject
 90
      499
 91
      501
 93
      476
310
43519B185D15DA5D1A115919D95CD0140901404333333333333E3BF0000000000000F9010740901411070040501600405405064090741402480A1B50
1001
ACAD
1000
AcDbSavedByObjectVersion
1070
     0
  0
ACAD_PROXY_OBJECT
  5
2D
102
{ACAD_REACTORS
330
2A
102
}
330
2A
100
AcDbProxyObject
 90
      499
 91
      501
 93
      412
310
41D1DBDD5C985D5910240902404333333333333E3BF0000000000000F9010740A411070040501641D405064090741402480A1B50
1001
ACAD
1000
AcDbSavedByObjectVersion
1070
     0
  0
ACAD_PROXY_OBJECT
  5
2E
102
{ACAD_REACTORS
330
2A
102
}
330
2A
100
AcDbProxyObject
 90
      499
 91
      501
 93
      500
310
4411DBDD5C985D5915DA5D1A115919D95CD0340902404333333333333E3BF0000000000000F9010740901411070040501600405405064090741402480A1B50
1001
ACAD
1000
AcDbSavedByObjectVersion
1070
     0
  0
ACAD_PROXY_OBJECT
  5
38
102
{ACAD_REACTORS
330
2A
102
}
330
2A
100
AcDbProxyObject
 90
      499
 91
      501
 93
      444
310
42D31A5B995C185D1D195C9B90E409028333333333333E3BF0000000000000FB010790141107004050750841D405064090741402483A0350
1001
ACAD
1000
AcDbSavedByObjectVersion
1070
     0
  0
ACAD_PROXY_OBJECT
  5
33
102
{ACAD_REACTORS
330
2A
102
}
330
2A
100
AcDbProxyObject
 90
      499
 91
      501
 93
      420
310
425499585B1A5CDD1A58D08409028333333333333E3BF0000000000000FB01079019070040501508421405064090741402480A1B40
1001
ACAD
1000
AcDbSavedByObjectVersion
1070
     0
  0
ACAD_PROXY_OBJECT
  5
37
102
{ACAD_REACTORS
330
2A
102
}
330
2A
100
AcDbProxyObject
 90
      499
 91
      501
 93
      412
310
41D51A1A58DAD95B90D409028333333333333E3BF0000000000000FB010790141107004050150C41D405064090741402480A0350
1001
ACAD
1000
AcDbSavedByObjectVersion
1070
     0
  0
XRECORD
  5
B6
102
{ACAD_REACTORS
330
AD
102
}
330
AD
100
AcDbXrecord
 90
        0
  0
XRECORD
  5
CC
102
{ACAD_REACTORS
330
AD
102
}
330
AD
100
AcDbXrecord
1000
DSTYLE
1002
{
1070
   340
340
11
1002
}
  0
XRECORD
  5
B7
102
{ACAD_REACTORS
330
AD
102
}
330
AD
100
AcDbXrecord
  1
{629162D3-04C1-49E4-82A2-63E9227377FD}
  0
XRECORD
  5
B0
102
{ACAD_REACTORS
330
AD
102
}
330
AD
100
AcDbXrecord
  1

  0
XRECORD
  5
B5
102
{ACAD_REACTORS
330
AD
102
}
330
AD
100
AcDbXrecord
 90
        1
  0
XRECORD
  5
B2
102
{ACAD_REACTORS
330
AD
102
}
330
AD
100
AcDbXrecord
340
1A
  0
XRECORD
  5
B4
102
{ACAD_REACTORS
330
AD
102
}
330
AD
100
AcDbXrecord
 90
    10781
  0
XRECORD
  5
B3
102
{ACAD_REACTORS
330
AD
102
}
330
AD
100
AcDbXrecord
340
19
  0
XRECORD
  5
B9
102
{ACAD_REACTORS
330
AD
102
}
330
AD
100
AcDbXrecord
 40
0.0
  0
XRECORD
  5
BC
102
{ACAD_REACTORS
330
AD
102
}
330
AD
100
AcDbXrecord
340
0
  0
XRECORD
  5
C2
102
{ACAD_REACTORS
330
AD
102
}
330
AD
100
AcDbXrecord
 10
0.0
 20
0.0
 30
0.0
  0
XRECORD
  5
BE
102
{ACAD_REACTORS
330
AD
102
}
330
AD
100
AcDbXrecord
 10
0.0
 20
0.0
 30
0.0
  0
XRECORD
  5
C1
102
{ACAD_REACTORS
330
AD
102
}
330
AD
100
AcDbXrecord
 10
0.0
 20
0.0
 30
0.0
  0
XRECORD
  5
BF
102
{ACAD_REACTORS
330
AD
102
}
330
AD
100
AcDbXrecord
 10
0.0
 20
0.0
 30
0.0
  0
XRECORD
  5
C0
102
{ACAD_REACTORS
330
AD
102
}
330
AD
100
AcDbXrecord
 10
0.0
 20
0.0
 30
0.0
  0
XRECORD
  5
BD
102
{ACAD_REACTORS
330
AD
102
}
330
AD
100
AcDbXrecord
 10
0.0
 20
0.0
 30
0.0
  0
XRECORD
  5
BA
102
{ACAD_REACTORS
330
AD
102
}
330
AD
100
AcDbXrecord
340
0
  0
XRECORD
  5
BB
102
{ACAD_REACTORS
330
AD
102
}
330
AD
100
AcDbXrecord
 70
     0
  0
XRECORD
  5
B1
102
{ACAD_REACTORS
330
AD
102
}
330
AD
100
AcDbXrecord
  1

  0
XRECORD
  5
AE
102
{ACAD_REACTORS
330
AD
102
}
330
AD
100
AcDbXrecord
 90
        1
  0
XRECORD
  5
AF
102
{ACAD_REACTORS
330
AD
102
}
330
AD
100
AcDbXrecord
 90
       70
  0
XRECORD
  5
C5
102
{ACAD_REACTORS
330
AD
102
}
330
AD
100
AcDbXrecord
340
0
  0
XRECORD
  5
CB
102
{ACAD_REACTORS
330
AD
102
}
330
AD
100
AcDbXrecord
 10
0.0
 20
0.0
 30
0.0
  0
XRECORD
  5
C7
102
{ACAD_REACTORS
330
AD
102
}
330
AD
100
AcDbXrecord
 10
0.0
 20
0.0
 30
0.0
  0
XRECORD
  5
CA
102
{ACAD_REACTORS
330
AD
102
}
330
AD
100
AcDbXrecord
 10
0.0
 20
0.0
 30
0.0
  0
XRECORD
  5
C8
102
{ACAD_REACTORS
330
AD
102
}
330
AD
100
AcDbXrecord
 10
0.0
 20
0.0
 30
0.0
  0
XRECORD
  5
C9
102
{ACAD_REACTORS
330
AD
102
}
330
AD
100
AcDbXrecord
 10
0.0
 20
0.0
 30
0.0
  0
XRECORD
  5
C6
102
{ACAD_REACTORS
330
AD
102
}
330
AD
100
AcDbXrecord
 10
0.0
 20
0.0
 30
0.0
  0
XRECORD
  5
C3
102
{ACAD_REACTORS
330
AD
102
}
330
AD
100
AcDbXrecord
340
0
  0
XRECORD
  5
C4
102
{ACAD_REACTORS
330
AD
102
}
330
AD
100
AcDbXrecord
 70
     0
  0
XRECORD
  5
B8
102
{ACAD_REACTORS
330
AD
102
}
330
AD
100
AcDbXrecord
  1
{FAEB1C32-E019-11D5-929B-00C0DF256EC4}
  0
DICTIONARYVAR
  5
D0
102
{ACAD_REACTORS
330
CD
102
}
330
CD
100
DictionaryVariables
280
     0
  1
1:1
  0
DICTIONARYVAR
  5
D1
102
{ACAD_REACTORS
330
CD
102
}
330
CD
100
DictionaryVariables
280
     0
  1
2
  0
DICTIONARYVAR
  5
D2
102
{ACAD_REACTORS
330
CD
102
}
330
CD
100
DictionaryVariables
280
     0
  1
1
  0
DICTIONARY
  5
D5
330
3D
100
AcDbDictionary
280
     1
  3
ACAD_XREC_ROUNDTRIP
360
D6
  0
DICTIONARY
  5
D3
330
3C
100
AcDbDictionary
280
     1
  3
ACAD_XREC_ROUNDTRIP
360
D4
  0
DICTIONARY
  5
D7
330
3E
100
AcDbDictionary
280
     1
  3
ACAD_XREC_ROUNDTRIP
360
D8
  0
XRECORD
  5
D6
102
{ACAD_REACTORS
330
D5
102
}
330
D5
100
AcDbXrecord
102
MATERIAL
148
0.0
149
0.0
149
0.0
 93
        0
 94
      127
282
     0
 72
     1
 77
     1
171
     1
175
     1
179
     1
273
     0
  0
XRECORD
  5
D4
102
{ACAD_REACTORS
330
D3
102
}
330
D3
100
AcDbXrecord
102
MATERIAL
148
0.0
149
0.0
149
0.0
 93
        0
 94
      127
282
     0
 72
     1
 77
     1
171
     1
175
     1
179
     1
273
     0
  0
XRECORD
  5
D8
102
{ACAD_REACTORS
330
D7
102
}
330
D7
100
AcDbXrecord
102
MATERIAL
148
0.0
149
0.0
149
0.0
 93
        0
 94
      127
282
     0
 72
     1
 77
     1
171
     1
175
     1
179
     1
273
     0
  0
ENDSEC
  0
EOF
